<?xml version="1.0" standalone="no"?>
<!DOCTYPE svg PUBLIC "-//W3C//DTD SVG 1.1//EN" "http://www.w3.org/Graphics/SVG/1.1/DTD/svg11.dtd" >
<svg xmlns="http://www.w3.org/2000/svg" xmlns:xlink="http://www.w3.org/1999/xlink" version="1.1">
<metadata></metadata>
<defs>
<font id="district_prothin" horiz-adv-x="1187" >
<font-face units-per-em="2048" ascent="1638" descent="-410" />
<missing-glyph horiz-adv-x="491" />
<glyph unicode="&#xfb01;" horiz-adv-x="985" d="M51 948v78h166v180q0 117 60 187.5t151 70.5q58 0 117 -30v-91q-53 43 -107 43q-56 0 -96.5 -45.5t-40.5 -119.5v-195h526v-1026h-84v948h-442v-948h-84v948h-166z" />
<glyph unicode="&#xfb02;" horiz-adv-x="987" d="M51 948v78h166v180q0 117 60 187.5t151 70.5q58 0 117 -30v-91q-53 43 -107 43q-56 0 -96.5 -45.5t-40.5 -119.5v-195h240v-78h-240v-948h-84v948h-166zM760 0v1440h84v-1440h-84z" />
<glyph unicode="&#xfb03;" horiz-adv-x="1509" d="M51 948v78h166v180q0 117 60 187.5t151 70.5q58 0 117 -30v-91q-53 43 -107 43q-56 0 -96.5 -45.5t-40.5 -119.5v-195h442v180q0 117 60 187.5t151 70.5q58 0 117 -30v-91q-53 43 -106 43q-56 0 -97 -45.5t-41 -119.5v-195h525v-1026h-84v948h-441v-948h-84v948h-442 v-948h-84v948h-166z" />
<glyph unicode="&#xfb04;" horiz-adv-x="1513" d="M51 948v78h166v180q0 117 60 187.5t151 70.5q58 0 117 -30v-91q-53 43 -107 43q-56 0 -96.5 -45.5t-40.5 -119.5v-195h442v180q0 117 60 187.5t151 70.5q58 0 117 -30v-91q-53 43 -106 43q-56 0 -97 -45.5t-41 -119.5v-195h240v-78h-240v-948h-84v948h-442v-948h-84v948 h-166zM1286 0v1440h84v-1440h-84z" />
<glyph horiz-adv-x="0" />
<glyph horiz-adv-x="682" />
<glyph unicode=" "  horiz-adv-x="491" />
<glyph unicode="&#x09;" horiz-adv-x="491" />
<glyph unicode="&#xa0;" horiz-adv-x="491" />
<glyph unicode="!" horiz-adv-x="452" d="M164 61q0 34 24 58t58 24q35 0 59.5 -24t24.5 -58q0 -35 -24.5 -59.5t-59.5 -24.5q-34 0 -58 24.5t-24 59.5zM197 879v561h92v-561l-25 -506h-45z" />
<glyph unicode="&#x22;" horiz-adv-x="641" d="M106 1440h127l-40 -561h-48zM408 1440h127l-41 -561h-48z" />
<glyph unicode="#" d="M70 471v74h262l26 405h-264v76h271l26 414h82l-29 -414h334l27 414h82l-29 -414h258v-76h-262l-27 -405h267v-74h-273l-30 -471h-82l30 471h-331l-31 -471h-82l31 471h-256zM414 545h331l27 405h-332z" />
<glyph unicode="$" d="M203 391l71 41q39 -109 123.5 -165t198.5 -56q144 0 222.5 67t78.5 185q0 86 -79 153.5t-275 137.5q-174 63 -248 140t-74 185q0 135 98 214t246 87v232h86v-236q102 -11 187 -61t141 -135l-66 -50q-114 175 -325 175q-121 0 -200 -57t-79 -165q0 -92 57.5 -142.5 t225.5 -115.5q220 -85 306.5 -169t86.5 -195q0 -136 -94.5 -223t-239.5 -103v-248h-86v246q-120 6 -214 70.5t-148 187.5z" />
<glyph unicode="%" horiz-adv-x="1617" d="M102 1079q0 72 16 137.5t49.5 123t93.5 92t140 34.5q100 0 169 -54.5t98.5 -139t29.5 -191.5q0 -54 -9.5 -105.5t-32 -103t-56 -90t-86 -62.5t-117.5 -24q-141 0 -218 108.5t-77 274.5zM182 1083q0 -48 9.5 -96.5t31.5 -101t68 -85t110 -32.5q61 0 106 31t67.5 80.5 t33 99t10.5 98.5q0 138 -58 229t-161 91t-160 -90.5t-57 -223.5zM367 -39l837 1557l70 -33l-838 -1559zM940 356q0 72 16 137.5t49.5 123t93.5 92t140 34.5q100 0 169 -54.5t98.5 -139t29.5 -191.5q0 -54 -9.5 -105.5t-32 -103t-56 -90t-86 -62.5t-117.5 -24 q-141 0 -218 108.5t-77 274.5zM1020 360q0 -48 9.5 -96.5t31.5 -101t68 -85t110 -32.5q61 0 106 31t67.5 80.5t33 99t10.5 98.5q0 138 -58 229t-161 91t-160 -90.5t-57 -223.5z" />
<glyph unicode="&#x26;" horiz-adv-x="1220" d="M92 385q0 119 68 227t194 172l-39 47q-122 146 -122 308q0 140 100 233.5t270 93.5q132 0 226 -60.5t137 -172.5l-80 -33q-34 91 -106.5 140t-176.5 49q-136 0 -209 -69.5t-73 -174.5q0 -78 23 -136.5t75 -123.5l561 -688q88 98 88 227h86q0 -167 -121 -291l146 -176 l-64 -53l-143 176q-146 -107 -359 -107q-111 0 -203.5 34t-152 91.5t-92.5 131.5t-33 155zM180 385q0 -138 105.5 -236t287.5 -98q187 0 308 90l-478 584q-112 -55 -167.5 -148.5t-55.5 -191.5z" />
<glyph unicode="'" horiz-adv-x="339" d="M104 1440h132l-43 -561h-48z" />
<glyph unicode="(" horiz-adv-x="716" d="M102 666q0 282 126.5 536.5t342.5 415.5l23 -70q-186 -165 -290.5 -397.5t-104.5 -484.5q0 -251 106.5 -486.5t288.5 -396.5l-23 -70q-215 161 -342 416.5t-127 536.5z" />
<glyph unicode=")" horiz-adv-x="716" d="M123 -217q182 161 288.5 396.5t106.5 486.5q0 252 -104.5 484.5t-290.5 397.5l22 70q216 -161 342.5 -415.5t126.5 -536.5q0 -281 -127 -536.5t-342 -416.5z" />
<glyph unicode="*" horiz-adv-x="817" d="M102 1006l267 106l-267 107l41 81l246 -155l-29 295h95l-25 -293l242 153l43 -81l-266 -107l266 -106l-43 -82l-242 155l25 -295h-95l29 295l-246 -155z" />
<glyph unicode="+" d="M82 610v80h469v475h84v-475h471v-80h-469v-475h-84v475h-471z" />
<glyph unicode="," horiz-adv-x="382" d="M41 -262l115 397h129l-185 -420z" />
<glyph unicode="-" horiz-adv-x="655" d="M102 557v78h451v-78h-451z" />
<glyph unicode="." horiz-adv-x="382" d="M109 61q0 34 23.5 58t57.5 24q35 0 59.5 -24t24.5 -58q0 -35 -24.5 -59.5t-59.5 -24.5q-34 0 -57.5 24.5t-23.5 59.5z" />
<glyph unicode="/" horiz-adv-x="1019" d="M-31 -254l994 1837l67 -37l-991 -1839z" />
<glyph unicode="0" d="M102 721q0 352 125.5 548.5t366.5 196.5q240 0 365.5 -196.5t125.5 -548.5q0 -233 -54 -399.5t-165 -257.5t-272 -91q-241 0 -366.5 197.5t-125.5 550.5zM190 719q0 -147 21.5 -264.5t67.5 -210.5t125.5 -144t187.5 -51q87 0 156 34t115 94t76.5 145.5t44 184.5t13.5 216 q0 146 -22.5 264t-69 210.5t-126 143t-187.5 50.5t-187.5 -51t-125.5 -144t-67.5 -211t-21.5 -266z" />
<glyph unicode="1" d="M307 1149v78q272 20 318 227h69v-1454h-86v1257q-55 -48 -136.5 -78t-164.5 -30z" />
<glyph unicode="2" d="M131 0q6 65 37 129t71.5 113.5t102.5 105.5t111.5 93.5t119 89.5t105.5 81q57 46 90.5 75t78 76t68 87t41 94.5t17.5 112.5q0 160 -104 247t-273 87q-125 0 -217.5 -64t-134.5 -151l-68 41q52 107 166 178t260 71q217 0 338 -111t121 -298q0 -103 -37.5 -188.5t-105 -157 t-183.5 -156.5q-23 -17 -78.5 -57t-86.5 -63t-81 -62t-82 -69.5t-68 -69t-61 -77t-40 -77.5h804v-80h-911z" />
<glyph unicode="3" d="M131 264l76 43q41 -130 138 -194t226 -64q79 0 145.5 19t120 58t83.5 105.5t30 155.5q0 75 -22 133t-58 93.5t-88 58.5t-106.5 32t-118.5 9h-147v75h135q57 0 106 7.5t98.5 28t84 53t56 86t21.5 124.5q0 134 -89.5 219t-254.5 85q-109 0 -195.5 -62.5t-123.5 -154.5 l-72 40q59 122 162 187t244 65q200 0 308.5 -104t108.5 -266q0 -130 -60.5 -220t-188.5 -122q135 -27 211.5 -120.5t76.5 -238.5q0 -193 -124 -307.5t-347 -114.5q-154 0 -270 75.5t-166 215.5z" />
<glyph unicode="4" d="M76 367v82l715 991h120v-996h226v-77h-226v-367h-86v367h-749zM162 444h663v912z" />
<glyph unicode="5" d="M113 215l63 49q139 -215 391 -215q199 0 311.5 113.5t112.5 308.5q0 179 -107.5 284t-293.5 105q-104 0 -201 -51t-156 -143l-75 24l37 750h790v-80h-713l-34 -580q143 156 368 156q221 0 347 -124.5t126 -336.5q0 -233 -138 -367.5t-376 -134.5q-145 0 -268 63t-184 179 z" />
<glyph unicode="6" d="M102 575q0 147 19.5 275.5t64 243t111 196t165.5 129t222 47.5q73 0 156.5 -20.5t128.5 -50.5l-41 -74q-48 33 -119 51.5t-137 18.5q-99 0 -179 -40t-133 -107t-91 -163.5t-58 -199.5t-29 -224q64 140 176 207.5t256 67.5q220 0 345.5 -130t125.5 -343q0 -224 -131 -355 t-354 -131q-109 0 -196 34.5t-142.5 91t-92.5 135.5t-52 163t-15 178zM197 461q0 -41 12 -90.5t42 -107.5t74 -104.5t116.5 -78t160.5 -31.5q183 0 289 115.5t106 302.5q0 179 -105.5 284t-285.5 105q-181 0 -295 -112.5t-114 -282.5z" />
<glyph unicode="7" d="M129 1360v80h930v-99q-249 -320 -376 -641t-155 -700h-100q67 726 549 1360h-848z" />
<glyph unicode="8" d="M102 385q0 288 304 383q-128 45 -188 131.5t-60 200.5q0 160 115 263t321 103q207 0 322.5 -103t115.5 -263q0 -114 -60 -200.5t-188 -131.5q303 -95 303 -383q0 -181 -126.5 -296.5t-366.5 -115.5q-121 0 -216.5 32t-155 88.5t-90 130.5t-30.5 161zM190 389 q0 -156 108.5 -248t295.5 -92q188 0 296.5 92t108.5 248q0 108 -55.5 187t-146 117t-203.5 38q-172 0 -288 -90.5t-116 -251.5zM246 1098q0 -129 96 -213t252 -84q158 0 254 84t96 213q0 57 -20 108t-60 93.5t-109.5 67t-160.5 24.5q-90 0 -159 -24.5t-109 -67t-60 -93.5 t-20 -108z" />
<glyph unicode="9" d="M102 981q0 224 131.5 354.5t354.5 130.5q109 0 196 -34.5t142.5 -91t92 -135.5t51.5 -163t15 -178q0 -147 -19.5 -275.5t-64 -243t-110.5 -196t-165 -129t-222 -47.5q-73 0 -156.5 21t-128.5 51l41 74q48 -33 119 -51.5t137 -18.5q99 0 179 40t133 107t91 163t58 199 t29 224q-64 -140 -176.5 -207t-256.5 -67q-220 0 -345.5 130t-125.5 343zM190 973q0 -179 106 -284t286 -105q181 0 295 112.5t114 282.5q0 41 -12 90.5t-42 107.5t-74 104.5t-116.5 78t-160.5 31.5q-183 0 -289.5 -115.5t-106.5 -302.5z" />
<glyph unicode=":" horiz-adv-x="452" d="M143 61q0 34 24 58t58 24q35 0 59.5 -24t24.5 -58q0 -35 -24.5 -59.5t-59.5 -24.5q-34 0 -58 24.5t-24 59.5zM143 944q0 34 24 58t58 24q35 0 59.5 -24t24.5 -58q0 -35 -24.5 -59.5t-59.5 -24.5q-34 0 -58 24.5t-24 59.5z" />
<glyph unicode=";" horiz-adv-x="452" d="M68 -262l114 397h129l-184 -420zM143 944q0 34 24 58t58 24q35 0 59.5 -24t24.5 -58q0 -35 -24.5 -59.5t-59.5 -24.5q-34 0 -58 24.5t-24 59.5z" />
<glyph unicode="&#x3c;" d="M102 666v98l910 549v-92l-844 -504l844 -508v-94z" />
<glyph unicode="=" d="M102 403v80h983v-80h-983zM102 821v80h983v-80h-983z" />
<glyph unicode="&#x3e;" d="M176 115v94l844 508l-844 504v92l909 -549v-98z" />
<glyph unicode="?" horiz-adv-x="980" d="M61 1204q30 83 99 143.5t155 89.5t179 29q187 0 296 -100.5t109 -257.5q0 -117 -50 -197.5t-173 -171.5q-33 -25 -44.5 -34t-39.5 -32.5t-39 -38t-29.5 -40.5t-26 -49.5t-14 -56.5t-6.5 -70v-37h-78v37q0 63 14.5 117.5t34 90.5t55 73t59.5 56.5t67 49.5 q97 72 139.5 138.5t42.5 164.5q0 130 -89.5 205.5t-227.5 75.5q-115 0 -217 -58.5t-140 -159.5zM360 61q0 34 24 58t58 24q35 0 59.5 -24t24.5 -58q0 -35 -24.5 -59.5t-59.5 -24.5q-34 0 -58 24.5t-24 59.5z" />
<glyph unicode="@" horiz-adv-x="1720" d="M123 604q0 174 62 332t169.5 274.5t260.5 185t327 68.5q196 0 346.5 -86.5t229.5 -233.5t79 -331q0 -151 -58 -283t-151.5 -208t-195.5 -76q-76 0 -124 39t-48 121v8q-113 -148 -264 -148q-113 0 -179.5 87t-66.5 229q0 130 59 252t161 199t216 77q87 0 148.5 -54 t72.5 -130l45 145h78q-13 -47 -58 -192t-84 -266l-38 -121q-18 -50 -18 -89q0 -47 25.5 -73.5t74.5 -26.5q80 0 148.5 51t110.5 129t65.5 165t23.5 165q0 267 -166 432.5t-434 165.5q-157 0 -298 -62.5t-242 -169.5t-160.5 -257t-59.5 -318q0 -159 54 -289t147 -215.5 t217 -131.5t264 -46q255 0 481 176l25 -43q-234 -186 -504 -186q-117 0 -225.5 30.5t-202.5 92t-163.5 148t-109.5 206t-40 258.5zM590 586q0 -112 48 -180t136 -68q94 0 179.5 85.5t121.5 209.5q41 144 41 201q0 91 -44.5 148.5t-139.5 57.5q-68 0 -132.5 -44 t-109.5 -111.5t-72.5 -147.5t-27.5 -151z" />
<glyph unicode="A" horiz-adv-x="1206" d="M41 0l514 1440h96l514 -1440h-90l-147 416h-649l-148 -416h-90zM303 489h600l-301 846z" />
<glyph unicode="B" horiz-adv-x="1224" d="M154 0v1440h579q146 0 246 -100.5t100 -243.5q0 -108 -60 -193.5t-159 -122.5q124 -38 203.5 -140.5t79.5 -236.5q0 -167 -118.5 -285t-287.5 -118h-583zM240 76h485q143 0 235.5 95.5t92.5 234.5t-100 234t-251 95h-462v-659zM240 811h462q117 0 203 81t86 195 q0 116 -76.5 196.5t-193.5 80.5h-481v-553z" />
<glyph unicode="C" horiz-adv-x="1261" d="M92 721q0 208 70 376.5t203.5 268.5t308.5 100q177 0 306.5 -100t199.5 -276l-82 -31q-60 154 -168.5 242t-255.5 88q-146 0 -259 -89.5t-173 -241t-60 -337.5t59 -337.5t171 -242t258 -90.5q127 0 226.5 67t162.5 187l82 -35q-74 -139 -195.5 -218t-275.5 -79 q-131 0 -240.5 58.5t-183 160t-114 238t-40.5 291.5z" />
<glyph unicode="D" horiz-adv-x="1273" d="M154 0v1440h450q131 0 241 -56.5t183 -154t113.5 -228.5t40.5 -280t-40.5 -280.5t-114 -229.5t-183 -154.5t-240.5 -56.5h-450zM240 78h364q146 0 258 86.5t171 232.5t59 324t-59 323t-171 231.5t-258 86.5h-364v-1284z" />
<glyph unicode="E" horiz-adv-x="1130" d="M154 0v1440h864v-78h-778v-569h591v-78h-591v-637h819v-78h-905z" />
<glyph unicode="F" horiz-adv-x="1069" d="M154 0v1440h864v-78h-778v-569h632v-78h-632v-715h-86z" />
<glyph unicode="G" horiz-adv-x="1316" d="M92 719q0 208 70 377t204 269.5t308 100.5q177 0 306.5 -100t199.5 -276l-82 -31q-60 154 -168.5 242t-255.5 88q-146 0 -259 -90.5t-173 -242t-60 -337.5t59 -337t171 -241t258 -90q190 0 320 161.5t149 410.5h-404v77h490v-22q0 -199 -71 -360.5t-198 -253t-286 -91.5 q-174 0 -307 100.5t-202 269t-69 376.5z" />
<glyph unicode="H" horiz-adv-x="1302" d="M154 0v1440h86v-656h823v656h86v-1440h-86v707h-823v-707h-86z" />
<glyph unicode="I" horiz-adv-x="393" d="M154 0v1440h86v-1440h-86z" />
<glyph unicode="J" horiz-adv-x="1034" d="M61 356l82 21q6 -137 102.5 -232.5t233.5 -95.5q143 0 234.5 99.5t91.5 250.5v1041h86v-1004q0 -217 -111 -340t-301 -123q-170 0 -288.5 110t-129.5 273z" />
<glyph unicode="K" horiz-adv-x="1214" d="M154 0v1440h86v-910l794 910h105l-500 -568l524 -872h-96l-483 807l-344 -391v-416h-86z" />
<glyph unicode="L" horiz-adv-x="1015" d="M154 0v1440h86v-1362h735v-78h-821z" />
<glyph unicode="M" horiz-adv-x="1538" d="M154 0v1440h100l514 -1303l516 1303h100v-1440h-86v1257l-497 -1257h-64l-497 1257v-1257h-86z" />
<glyph unicode="N" horiz-adv-x="1331" d="M154 0v1440h94l844 -1305v1305h86v-1440h-97l-841 1303v-1303h-86z" />
<glyph unicode="O" horiz-adv-x="1339" d="M92 719q0 208 69 376.5t202 269.5t307 101t307 -101t201.5 -269.5t68.5 -376.5t-68.5 -376.5t-201.5 -269t-307 -100.5t-307 100.5t-202 269t-69 376.5zM182 719q0 -186 59 -337t171 -241t258 -90q147 0 259 90t170 241t58 337t-58 337.5t-170 242t-259 90.5 q-146 0 -258 -90.5t-171 -242t-59 -337.5z" />
<glyph unicode="P" horiz-adv-x="1198" d="M154 0v1440h602q112 0 200 -56t134.5 -147.5t46.5 -200.5t-46.5 -200.5t-134.5 -147t-200 -55.5h-516v-633h-86zM240 711h510q133 0 215 95t82 230t-82.5 230.5t-214.5 95.5h-510v-651z" />
<glyph unicode="Q" horiz-adv-x="1339" d="M92 719q0 208 69 376.5t202 269.5t307 101t307 -100.5t201.5 -268.5t68.5 -376q0 -218 -77 -394.5t-216 -269.5l168 -237l-65 -47l-174 243q-93 -43 -213 -43q-174 0 -307 100.5t-202 269t-69 376.5zM182 719q0 -186 59 -337t171 -241t258 -90q93 0 166 33l-131 184 l67 47l135 -190q118 83 184 241.5t66 354.5q0 186 -58.5 337t-170.5 241t-258 90t-258 -90.5t-171 -242t-59 -337.5z" />
<glyph unicode="R" horiz-adv-x="1234" d="M154 0v1440h602q169 0 275 -115.5t106 -282.5t-110.5 -282t-287.5 -115l404 -645h-103l-403 645h-397v-645h-86zM240 723h510q133 0 215 92.5t82 226.5t-82 227t-215 93h-510v-639z" />
<glyph unicode="S" horiz-adv-x="1105" d="M82 283l76 45q49 -135 149 -206t238 -71q172 0 270 86.5t98 235.5q0 102 -95.5 185t-332.5 169q-207 75 -294 167t-87 222q0 114 59.5 194.5t156 118t219.5 37.5q147 0 263.5 -61.5t192.5 -179.5l-67 -54q-141 218 -396 218q-94 0 -168.5 -28.5t-121.5 -89.5t-47 -147 q0 -114 72.5 -180.5t271.5 -142.5q178 -68 281.5 -137.5t143.5 -139t40 -159.5q0 -182 -131 -287t-332 -105q-154 0 -272 76.5t-187 233.5z" />
<glyph unicode="T" horiz-adv-x="1067" d="M51 1362v78h965v-76h-441v-1364h-86v1362h-438z" />
<glyph unicode="U" horiz-adv-x="1282" d="M143 594v846h86v-856q0 -134 20.5 -230t67.5 -165.5t127 -103.5t197 -34t197 34t127 103.5t67.5 165.5t20.5 230v856h86v-846q0 -155 -25.5 -267t-82.5 -193t-154 -121t-236 -40t-236 40t-154 121t-82.5 193t-25.5 267z" />
<glyph unicode="V" horiz-adv-x="1206" d="M41 1440h90l473 -1334l471 1334h90l-514 -1440h-96z" />
<glyph unicode="W" horiz-adv-x="1693" d="M61 1440h86l314 -1325l340 1325h92l340 -1325l313 1325h86l-342 -1440h-106l-336 1313l-338 -1313h-107z" />
<glyph unicode="X" horiz-adv-x="1120" d="M41 0l457 768l-400 672h97l364 -615l367 615h96l-401 -672l458 -768h-98l-422 711l-420 -711h-98z" />
<glyph unicode="Y" horiz-adv-x="1159" d="M41 1440h94l445 -776l442 776h96l-495 -860v-580h-86v580z" />
<glyph unicode="Z" horiz-adv-x="1126" d="M61 0v82l900 1280h-852v78h946v-82l-899 -1280h891v-78h-986z" />
<glyph unicode="[" horiz-adv-x="598" d="M143 -260v1847h353v-74h-267v-1699h267v-74h-353z" />
<glyph unicode="\" horiz-adv-x="999" d="M0 1546l68 37l993 -1837l-70 -39z" />
<glyph unicode="]" horiz-adv-x="598" d="M102 -186h267v1699h-267v74h353v-1847h-353v74z" />
<glyph unicode="^" horiz-adv-x="1083" d="M147 750l359 690h78l352 -690h-86l-307 610l-312 -610h-84z" />
<glyph unicode="_" horiz-adv-x="1038" d="M-10 -195h1059v-65h-1059v65z" />
<glyph unicode="`" horiz-adv-x="921" d="M209 1489h147l262 -307h-77z" />
<glyph unicode="a" horiz-adv-x="1015" d="M86 272q0 87 35.5 156t96 111t136.5 64t162 22q138 0 262 -56v142q0 121 -82 193.5t-196 72.5q-82 0 -160.5 -43.5t-128.5 -126.5l-66 49q52 91 151.5 144t213.5 53q70 0 131.5 -21t111.5 -62.5t79.5 -112t29.5 -161.5v-585q0 -35 39 -35h33v-76h-45q-59 0 -85 28.5 t-26 86.5v35q-60 -80 -163.5 -126.5t-211.5 -46.5q-135 0 -226 74.5t-91 220.5zM174 281q0 -109 68 -168.5t170 -59.5q97 0 199 55t167 150v223q-45 31 -114 49.5t-142 18.5q-147 0 -247.5 -73.5t-100.5 -194.5z" />
<glyph unicode="b" horiz-adv-x="1013" d="M143 0v1440h84v-598q117 211 328 211q109 0 195 -73t132 -195.5t46 -270.5t-47.5 -271.5t-135.5 -196.5t-198 -73q-107 0 -188.5 50t-131.5 143v-166h-84zM227 332q40 -126 122.5 -205.5t187.5 -79.5q88 0 158 63.5t107.5 169.5t37.5 234q0 196 -83 330.5t-214 134.5 q-112 0 -198 -95t-118 -241v-311z" />
<glyph unicode="c" horiz-adv-x="933" d="M86 512q0 243 115 392t309 149q222 0 342 -191l-70 -49q-109 164 -272 164q-151 0 -243.5 -129t-92.5 -336q0 -205 92.5 -334t243.5 -129q160 0 268 164l70 -47q-121 -193 -338 -193q-194 0 -309 148t-115 391z" />
<glyph unicode="d" horiz-adv-x="1013" d="M86 514q0 148 46 270.5t132 195.5t195 73q211 0 327 -209v596h84v-1440h-84v166q-105 -193 -319 -193q-110 0 -198 73t-135.5 196.5t-47.5 271.5zM174 514q0 -128 37.5 -234t107.5 -169.5t158 -63.5q105 0 187 79.5t122 205.5v313q-31 146 -117 240t-198 94 q-131 0 -214 -134.5t-83 -330.5z" />
<glyph unicode="e" horiz-adv-x="980" d="M86 514q0 243 111.5 391t298.5 148q185 0 292 -147.5t107 -391.5v-18h-721q5 -197 97 -323t233 -126q86 0 164.5 45.5t122.5 120.5l65 -47q-57 -91 -149.5 -142t-202.5 -51q-187 0 -302.5 149.5t-115.5 391.5zM176 569h633q-12 185 -96.5 297.5t-216.5 112.5 q-134 0 -221 -113t-99 -297z" />
<glyph unicode="f" horiz-adv-x="616" d="M51 948v78h166v180q0 117 60 187.5t151 70.5q58 0 117 -30v-91q-53 43 -107 43q-56 0 -96.5 -45.5t-40.5 -119.5v-195h240v-78h-240v-948h-84v948h-166z" />
<glyph unicode="g" horiz-adv-x="1011" d="M86 512q0 148 47.5 271.5t135.5 196.5t198 73q216 0 317 -189v162h84v-973q0 -122 -35.5 -218t-95 -153t-131 -86.5t-149.5 -29.5q-96 0 -178.5 43t-128.5 121l57 51q99 -139 248 -139q131 0 230 110t99 283v158q-111 -220 -325 -220q-109 0 -195 73t-132 195.5 t-46 270.5zM174 512q0 -196 83 -330.5t214 -134.5q112 0 196.5 94.5t116.5 241.5v313q-40 127 -120 205t-185 78q-88 0 -158.5 -63.5t-108.5 -169.5t-38 -234z" />
<glyph unicode="h" horiz-adv-x="1009" d="M143 0v1440h84v-563q48 86 131 131t181 45q86 0 152 -33t106 -92.5t60 -136t20 -168.5v-623h-84v645q0 155 -70.5 243.5t-194.5 88.5q-55 0 -107 -20.5t-96 -61t-71 -109.5t-27 -157v-629h-84z" />
<glyph unicode="i" horiz-adv-x="399" d="M127 1393q0 29 21.5 50t52.5 21q29 0 50 -21t21 -50q0 -31 -21 -52.5t-50 -21.5q-31 0 -52.5 21.5t-21.5 52.5zM158 0v1026h84v-1026h-84z" />
<glyph unicode="j" horiz-adv-x="399" d="M-72 -395l27 71q35 -28 80 -28q51 0 87 45t36 119v1214h84v-1194q0 -118 -56.5 -188t-144.5 -70q-53 0 -113 31zM127 1393q0 29 21.5 50t52.5 21q29 0 50 -21t21 -50q0 -31 -21 -52.5t-50 -21.5q-31 0 -52.5 21.5t-21.5 52.5z" />
<glyph unicode="k" horiz-adv-x="937" d="M143 0v1440h84v-1004l514 590h105l-340 -387l381 -639h-92l-344 575l-224 -256v-319h-84z" />
<glyph unicode="l" horiz-adv-x="370" d="M143 0v1440h84v-1440h-84z" />
<glyph unicode="m" horiz-adv-x="1560" d="M143 0v1026h84v-139q48 83 122 124.5t163 41.5q109 0 181 -60.5t106 -165.5q44 112 127 169t186 57q106 0 178.5 -58.5t104.5 -153t32 -218.5v-623h-84v645q0 156 -63 244t-176 88q-82 0 -146.5 -47t-97.5 -123t-33 -166v-641h-84v645q0 156 -63 244t-176 88 q-50 0 -98 -20.5t-88.5 -61t-65.5 -109.5t-25 -157v-629h-84z" />
<glyph unicode="n" horiz-adv-x="1009" d="M143 0v1026h84v-149q48 86 131 131t181 45q86 0 152 -33t106 -92.5t60 -136t20 -168.5v-623h-84v645q0 156 -69.5 244t-193.5 88q-55 0 -107 -20.5t-97 -61t-72 -109.5t-27 -157v-629h-84z" />
<glyph unicode="o" horiz-adv-x="1019" d="M86 514q0 245 112 392t312 147t312 -147t112 -392q0 -246 -112.5 -393.5t-311.5 -147.5t-311.5 147.5t-112.5 393.5zM174 514q0 -209 89 -338t247 -129t247 129t89 338t-89 337t-247 128t-247 -128t-89 -337z" />
<glyph unicode="p" horiz-adv-x="1013" d="M143 -410v1436h84v-164q104 191 320 191q110 0 198 -73t135.5 -196.5t47.5 -271.5t-46 -270.5t-132 -195.5t-195 -73q-211 0 -328 211v-594h-84zM227 383q32 -146 118 -241t198 -95q131 0 214 134.5t83 330.5q0 128 -37.5 234t-107.5 169.5t-158 63.5q-106 0 -188 -78.5 t-122 -204.5v-313z" />
<glyph unicode="q" horiz-adv-x="1013" d="M86 512q0 148 47.5 271.5t135.5 196.5t198 73q214 0 319 -193v166h84v-1436h-84v592q-116 -209 -327 -209q-109 0 -195 73t-132 195.5t-46 270.5zM174 512q0 -196 83 -330.5t214 -134.5q112 0 198 94t117 240v313q-40 126 -122 205.5t-187 79.5q-88 0 -158 -63.5 t-107.5 -169.5t-37.5 -234z" />
<glyph unicode="r" horiz-adv-x="714" d="M143 0v1026h84v-149q48 87 129.5 131.5t178.5 44.5q58 0 129 -23l-33 -80q-56 23 -107 23q-55 0 -106.5 -21t-94.5 -62t-69.5 -110t-26.5 -157v-623h-84z" />
<glyph unicode="s" horiz-adv-x="858" d="M92 170l66 49q54 -88 121.5 -130t156.5 -42q115 0 178.5 58t63.5 147q0 82 -66.5 139.5t-244.5 120.5q-138 48 -201.5 118.5t-63.5 166.5q0 110 84.5 183t233.5 73q199 0 328 -168l-66 -51q-51 72 -120 108.5t-144 36.5q-102 0 -165 -47.5t-63 -134.5q0 -77 56.5 -125.5 t183.5 -93.5q186 -67 261 -142t75 -182q0 -125 -88 -203t-244 -78q-229 0 -342 197z" />
<glyph unicode="t" horiz-adv-x="626" d="M51 948v78h166v414h84v-414h240v-78h-240v-733q0 -73 41 -117.5t98 -44.5t105 39v-88q-54 -31 -117 -31q-92 0 -151.5 67.5t-59.5 184.5v723h-166z" />
<glyph unicode="u" horiz-adv-x="1009" d="M133 403v623h84v-645q0 -156 69 -244t193 -88q55 0 107 20.5t97 61t72 109.5t27 157v629h84v-1026h-84v150q-48 -87 -131 -132t-180 -45q-86 0 -152 33t-106 92.5t-60 136t-20 168.5z" />
<glyph unicode="v" horiz-adv-x="931" d="M51 1026h92l316 -932l332 932h90l-383 -1026h-84z" />
<glyph unicode="w" horiz-adv-x="1449" d="M61 1026h91l262 -934l264 934h92l266 -934l262 934h91l-308 -1026h-92l-264 926l-264 -926h-94z" />
<glyph unicode="x" horiz-adv-x="903" d="M61 0l336 528l-313 498h94l273 -438l272 438h96l-315 -498l338 -528h-99l-292 471l-291 -471h-99z" />
<glyph unicode="y" horiz-adv-x="929" d="M51 1026h90l318 -930l329 930h91l-496 -1319q-51 -133 -178 -133q-36 0 -72 16v70q32 -16 70 -16q77 0 112 92l101 260z" />
<glyph unicode="z" horiz-adv-x="825" d="M72 0v68l575 880h-530v78h631v-65l-580 -883h586v-78h-682z" />
<glyph unicode="{" horiz-adv-x="634" d="M41 655v66q85 35 123.5 101.5t38.5 176.5v203q0 167 98 279t252 112v-73q-114 0 -189 -82.5t-75 -223.5v-245q0 -87 -40 -163.5t-108 -117.5q68 -41 108 -117t40 -163v-293q0 -139 75 -221t189 -82v-74q-154 0 -252 112t-98 277v250q0 110 -38.5 176.5t-123.5 101.5z" />
<glyph unicode="|" horiz-adv-x="503" d="M205 -266v1788h94v-1788h-94z" />
<glyph unicode="}" horiz-adv-x="634" d="M82 -188q114 0 189 82t75 221v293q0 87 40 163t108 117q-68 41 -108 117.5t-40 163.5v245q0 141 -75 223.5t-189 82.5v73q154 0 252 -112t98 -279v-203q0 -110 38.5 -176.5t123.5 -101.5v-66q-85 -35 -123.5 -101.5t-38.5 -176.5v-250q0 -165 -98 -277t-252 -112v74z" />
<glyph unicode="~" d="M137 621q39 80 104.5 127t153.5 47q45 0 105 -23.5t108.5 -51.5t105 -51.5t95.5 -23.5q60 0 99.5 32.5t78.5 100.5l64 -43q-51 -87 -111 -129.5t-141 -42.5q-54 0 -131.5 37.5t-154.5 75t-130 37.5q-59 0 -101 -36.5t-79 -96.5z" />
<glyph unicode="&#xa1;" horiz-adv-x="452" d="M164 967q0 35 24.5 59.5t59.5 24.5q34 0 58 -24.5t24 -59.5q0 -34 -24 -58t-58 -24q-35 0 -59.5 24t-24.5 58zM205 152l24 505h45l23 -505v-562h-92v562z" />
<glyph unicode="&#xa2;" d="M203 668q0 221 102.5 361t274.5 163v248h88v-244q204 -12 317 -190l-76 -52q-46 78 -115.5 120t-154.5 42q-153 0 -245.5 -121.5t-92.5 -326.5q0 -204 92.5 -326.5t245.5 -122.5q85 0 154.5 42t115.5 120l76 -49q-113 -181 -317 -193v-254h-88v258q-172 23 -274.5 163.5 t-102.5 361.5z" />
<glyph unicode="&#xa3;" d="M182 0v1092q0 167 97.5 270.5t283.5 103.5q111 0 187 -32t143 -101l-57 -57q-116 113 -271 113q-81 0 -140.5 -25.5t-92.5 -69.5t-48.5 -96t-15.5 -113v-239h465v-76h-465v-694h467q117 0 183.5 55.5t66.5 157.5q0 66 -36.5 122t-96.5 91l43 63q71 -38 121.5 -112 t50.5 -160q0 -136 -86 -214.5t-229 -78.5h-570z" />
<glyph unicode="&#xa4;" d="M35 199l217 217q-98 122 -98 284q0 160 98 279l-215 215l59 59l215 -213q119 101 281 101q161 0 285 -103l213 215l59 -59l-215 -215q96 -120 96 -279q0 -161 -96 -284l219 -217l-59 -60l-217 215q-123 -102 -285 -102q-160 0 -283 102l-215 -215zM248 700 q0 -156 97.5 -259t246.5 -103q151 0 247.5 103t96.5 259q0 151 -97 254t-247 103q-148 0 -246 -103t-98 -254z" />
<glyph unicode="&#xa5;" d="M55 1440h101l438 -781l442 781h97l-428 -742h292v-71h-333l-27 -47v-150h360v-72h-360v-358h-86v358h-361v72h361v150l-27 47h-334v71h293z" />
<glyph unicode="&#xa6;" horiz-adv-x="503" d="M205 -266v733h94v-733h-94zM205 807v715h94v-715h-94z" />
<glyph unicode="&#xa7;" horiz-adv-x="958" d="M102 537q0 113 61.5 204t164.5 150q-82 51 -125 119t-43 170q0 124 90.5 205t212.5 81q104 0 183 -43t145 -137l-66 -45q-48 78 -109.5 114t-152.5 36q-93 0 -157 -59.5t-64 -160.5q0 -37 8.5 -68.5t20.5 -55t35.5 -45t42.5 -35.5t53 -30.5t56.5 -25.5t61.5 -24 q53 -20 92.5 -39.5t88.5 -54t80 -73.5t53 -98.5t22 -129.5q0 -113 -62 -203.5t-165 -149.5q83 -51 126.5 -119t43.5 -170q0 -124 -91 -205t-214 -81q-105 0 -183.5 43t-142.5 137l65 45q48 -77 109.5 -113t151.5 -36q93 0 157 59t64 160q0 37 -8.5 68.5t-20.5 55t-35 45 t-42.5 36t-53.5 30.5t-57 25t-62 24q-53 20 -92.5 39.5t-88 53.5t-79.5 73.5t-52.5 98.5t-21.5 129zM180 537q0 -65 22.5 -117.5t65 -90t87.5 -63t106 -49.5q42 -16 102 -43q103 55 158 143.5t55 174.5q0 66 -22 118.5t-64 90t-87 63t-107 49.5q-15 6 -103 43 q-103 -55 -158 -144t-55 -175z" />
<glyph unicode="&#xa8;" horiz-adv-x="921" d="M225 1325q0 28 20 48t46 20q28 0 47.5 -20t19.5 -48q0 -26 -19.5 -45.5t-47.5 -19.5q-26 0 -46 19.5t-20 45.5zM563 1325q0 28 20 48t46 20q28 0 47.5 -20t19.5 -48q0 -26 -19.5 -45.5t-47.5 -19.5q-26 0 -46 19.5t-20 45.5z" />
<glyph unicode="&#xa9;" horiz-adv-x="1738" d="M123 719q0 153 59 291t158.5 238t237.5 159t290 59q153 0 291.5 -59t238.5 -159t159 -238t59 -291q0 -203 -100 -374.5t-272 -271.5t-376 -100q-152 0 -290 59t-237.5 159t-158.5 238t-59 290zM182 719q0 -186 92 -344t250 -250t344 -92q187 0 345.5 92t250.5 250t92 344 q0 187 -92 345.5t-250.5 250.5t-345.5 92q-186 0 -344 -92t-250 -250.5t-92 -345.5zM483 719q0 188 112.5 313t283.5 125q183 0 303 -143l-56 -47q-54 58 -109.5 90.5t-137.5 32.5q-138 0 -230 -104.5t-92 -260.5q0 -162 93.5 -267.5t228.5 -105.5q142 0 254 125l51 -45 q-124 -149 -310 -149q-164 0 -277.5 122t-113.5 314z" />
<glyph unicode="&#xaa;" horiz-adv-x="757" d="M102 979q0 106 81 161.5t200 55.5q77 0 141 -25v70q0 150 -155 150q-67 0 -107.5 -22.5t-75.5 -74.5l-53 41q78 119 246 119q93 0 155 -50.5t62 -137.5v-357q0 -24 13 -34.5t30 -10.5h16v-63h-37q-38 0 -66.5 23.5t-31.5 70.5q-56 -59 -105.5 -83t-107.5 -24 q-89 0 -147 51t-58 140zM176 977q0 -63 38.5 -94t96.5 -31q72 0 137 51t76 109v84q-32 41 -147 41q-46 0 -89.5 -15t-77.5 -53t-34 -92z" />
<glyph unicode="&#xab;" horiz-adv-x="980" d="M72 586l323 450l82 -18l-309 -432l309 -432l-82 -19zM453 586l323 450l82 -18l-309 -432l309 -432l-82 -19z" />
<glyph unicode="&#xac;" d="M82 606v80h1024v-442h-76v362h-948z" />
<glyph unicode="&#xad;" horiz-adv-x="655" d="M102 557v78h451v-78h-451z" />
<glyph unicode="&#xae;" horiz-adv-x="1282" d="M102 928q0 146 72 270t196 196t271 72q146 0 270 -72t196.5 -196t72.5 -270q0 -147 -72.5 -271t-196.5 -196t-270 -72q-147 0 -271 72t-196 196t-72 271zM154 928q0 -132 65.5 -244.5t177.5 -178t244 -65.5t243.5 65.5t176.5 178t65 244.5t-65 243.5t-176.5 176.5 t-243.5 65t-244 -65t-177.5 -176.5t-65.5 -243.5zM438 594v666h279q80 0 129 -54t49 -131t-51.5 -130.5t-132.5 -53.5l186 -297h-66l-186 297h-147v-297h-60zM498 944h211q59 0 93 36.5t34 94.5t-34 94.5t-93 36.5h-211v-262z" />
<glyph unicode="&#xaf;" horiz-adv-x="921" d="M203 1272v76h518v-76h-518z" />
<glyph unicode="&#xb0;" horiz-adv-x="970" d="M143 1163q0 145 98.5 244.5t243.5 99.5q146 0 244 -99.5t98 -244.5q0 -148 -98 -249t-244 -101q-145 0 -243.5 101t-98.5 249zM225 1163q0 -119 73.5 -197.5t186.5 -78.5q115 0 187.5 78.5t72.5 197.5q0 116 -73 194.5t-187 78.5q-113 0 -186.5 -79t-73.5 -194z" />
<glyph unicode="&#xb1;" d="M82 0v80h1024v-80h-1024zM82 610v80h469v475h84v-475h471v-80h-469v-475h-84v475h-471z" />
<glyph unicode="&#xb2;" horiz-adv-x="899" d="M102 1245q54 106 147 159.5t210 53.5q146 0 240 -80.5t94 -208.5q0 -102 -58.5 -181t-199.5 -175q-125 -84 -200.5 -156.5t-119.5 -167.5h582v-73h-682q18 124 112 231.5t303 257.5q82 59 129.5 123.5t47.5 149.5q0 87 -71.5 149t-184.5 62q-94 0 -167.5 -48.5 t-111.5 -134.5z" />
<glyph unicode="&#xb3;" horiz-adv-x="929" d="M102 616l68 37q34 -78 114.5 -132t178.5 -54q128 0 202 61t74 162q0 99 -69.5 163.5t-192.5 64.5h-135v71h109q120 0 190 60t70 141q0 82 -62 139t-172 57q-99 0 -168.5 -42.5t-101.5 -108.5l-72 33q48 88 127.5 139t210.5 51q157 0 240.5 -73t83.5 -191 q0 -168 -170 -229q69 -21 115.5 -68.5t65.5 -100t19 -108.5q0 -54 -19.5 -103.5t-60 -93t-113 -69t-167.5 -25.5q-126 0 -227 61.5t-138 157.5z" />
<glyph unicode="&#xb4;" horiz-adv-x="921" d="M303 1182l262 307h148l-332 -307h-78z" />
<glyph unicode="&#xb5;" d="M227 -410v1436h84v-616q0 -361 267 -361q125 0 212 97.5t87 263.5v616h84v-1026h-84v147q-49 -89 -129 -131.5t-179 -42.5q-77 0 -148.5 34.5t-109.5 109.5v-527h-84z" />
<glyph unicode="&#xb6;" horiz-adv-x="1069" d="M61 1030q0 169 120 289.5t290 120.5h455v-1850h-84v1776h-262v-1776h-84v1028h-25q-170 0 -290 121t-120 291z" />
<glyph unicode="&#xb7;" horiz-adv-x="370" d="M102 645q0 34 24 58t58 24q35 0 59.5 -24t24.5 -58q0 -35 -24.5 -59.5t-59.5 -24.5q-34 0 -58 24.5t-24 59.5z" />
<glyph unicode="&#xb8;" horiz-adv-x="921" d="M231 -401l17 61q32 -14 80.5 -25.5t81.5 -11.5q80 0 120.5 28.5t40.5 69.5q0 36 -28.5 59t-77.5 23q-51 0 -109 -26l-55 14l107 223h63l-86 -174q51 23 100 23q71 0 117.5 -39t46.5 -103q0 -70 -62 -113.5t-173 -43.5q-98 0 -183 35z" />
<glyph unicode="&#xb9;" horiz-adv-x="600" d="M61 1188v76q123 6 191 52t94 142h70v-1042h-84v862q-107 -90 -271 -90z" />
<glyph unicode="&#xba;" horiz-adv-x="770" d="M102 1122q0 149 78.5 241.5t204.5 92.5q125 0 204 -92.5t79 -241.5t-79 -241.5t-204 -92.5q-126 0 -204.5 92.5t-78.5 241.5zM178 1122q0 -122 55.5 -196t151.5 -74q94 0 150.5 74.5t56.5 195.5t-56.5 197t-150.5 76q-95 0 -151 -75.5t-56 -197.5z" />
<glyph unicode="&#xbb;" horiz-adv-x="980" d="M123 154l309 432l-309 432l82 18l323 -450l-323 -451zM504 154l309 432l-309 432l82 18l323 -450l-323 -451z" />
<glyph unicode="&#xbc;" horiz-adv-x="2048" d="M141 1188v76q123 6 191 52t94 142h70v-1042h-84v858q-102 -86 -271 -86zM549 -39l837 1557l70 -33l-838 -1559zM1143 270v62l553 704h86v-694h164v-72h-164v-270h-84v270h-555zM1245 342h453v580z" />
<glyph unicode="&#xbd;" horiz-adv-x="2048" d="M86 1188v76q123 6 191 52t94 142h69v-1042h-84v858q-102 -86 -270 -86zM473 -39l838 1557l69 -33l-837 -1559zM1262 829q47 104 147.5 158.5t220.5 54.5q138 0 230 -80.5t92 -207.5q0 -106 -57.5 -186.5t-200.5 -170.5q-118 -74 -195 -149t-129 -174h586v-74h-682 q10 119 115 235t333 279q73 52 108.5 110t35.5 138q0 88 -70 149.5t-182 61.5q-95 0 -174 -51t-109 -136z" />
<glyph unicode="&#xbe;" horiz-adv-x="2048" d="M61 616l68 37q34 -78 114.5 -132t178.5 -54q128 0 202 61t74 162q0 99 -69.5 163.5t-192.5 64.5h-135v71h109q120 0 190 60t70 141q0 82 -62 139t-172 57q-99 0 -168.5 -42.5t-101.5 -108.5l-72 33q48 88 127.5 139t210.5 51q157 0 240.5 -73t83.5 -191q0 -168 -170 -229 q69 -21 115.5 -68.5t65.5 -100t19 -108.5q0 -54 -19.5 -103.5t-60 -93t-113 -69t-167.5 -25.5q-126 0 -227 61.5t-138 157.5zM651 -39l838 1557l70 -33l-838 -1559zM1184 270v62l553 704h86v-694h164v-72h-164v-270h-84v270h-555zM1286 342h453v580z" />
<glyph unicode="&#xbf;" horiz-adv-x="817" d="M82 -78q0 117 50 197.5t173 171.5q33 25 44.5 34t39.5 32.5t39 38t29.5 40.5t26 49.5t14 56.5t6.5 70v37h78v-37q0 -63 -14.5 -117.5t-34 -90.5t-55 -73t-59.5 -56.5t-67 -49.5q-97 -72 -139.5 -138.5t-42.5 -164.5q0 -130 89.5 -205t227.5 -75q115 0 217 58t140 159 l76 -33q-30 -83 -99 -143.5t-155 -89.5t-179 -29q-187 0 -296 100.5t-109 257.5zM455 969q0 35 24.5 59.5t59.5 24.5q34 0 58 -24.5t24 -59.5q0 -34 -24 -58t-58 -24q-35 0 -59.5 24t-24.5 58z" />
<glyph unicode="&#xc0;" horiz-adv-x="1247" d="M61 0l514 1440h97l514 -1440h-90l-148 416h-649l-147 -416h-91zM270 1868h148l262 -307h-78zM324 489h600l-301 846z" />
<glyph unicode="&#xc1;" horiz-adv-x="1206" d="M41 0l514 1440h96l514 -1440h-90l-147 416h-649l-148 -416h-90zM303 489h600l-301 846zM549 1561l262 307h147l-331 -307h-78z" />
<glyph unicode="&#xc2;" horiz-adv-x="1206" d="M41 0l514 1440h96l514 -1440h-90l-147 416h-649l-148 -416h-90zM291 1561l256 307h112l254 -307h-77l-234 239l-237 -239h-74zM303 489h600l-301 846z" />
<glyph unicode="&#xc3;" horiz-adv-x="1206" d="M41 0l514 1440h96l514 -1440h-90l-147 416h-649l-148 -416h-90zM285 1632q8 88 56.5 138.5t131.5 50.5q43 0 84 -19t66.5 -41.5t58 -41.5t61.5 -19q52 0 78 29.5t39 87.5l64 -11q-15 -94 -61.5 -138t-127.5 -44q-42 0 -80.5 19t-63 41.5t-57.5 41.5t-65 19 q-45 0 -75.5 -33t-43.5 -88zM303 489h600l-301 846z" />
<glyph unicode="&#xc4;" horiz-adv-x="1206" d="M41 0l514 1440h96l514 -1440h-90l-147 416h-649l-148 -416h-90zM303 489h600l-301 846zM367 1704q0 28 19.5 48t45.5 20q28 0 48 -20t20 -48q0 -26 -20 -46t-48 -20q-26 0 -45.5 20t-19.5 46zM705 1704q0 28 19.5 48t45.5 20q28 0 48 -20t20 -48q0 -26 -20 -46t-48 -20 q-26 0 -45.5 20t-19.5 46z" />
<glyph unicode="&#xc5;" horiz-adv-x="1206" d="M41 0l508 1432q-66 17 -107 70.5t-41 123.5q0 85 57.5 143t143.5 58t143.5 -58t57.5 -143q0 -70 -41.5 -123.5t-106.5 -70.5l510 -1432h-90l-147 416h-649l-148 -416h-90zM305 489h596l-299 852zM467 1626q0 -57 38 -96t95 -39q58 0 96.5 39t38.5 96t-38.5 96t-96.5 39 q-57 0 -95 -39t-38 -96z" />
<glyph unicode="&#xc6;" horiz-adv-x="1953" d="M20 0l932 1440h889v-78h-778v-569h592v-78h-592v-637h819v-78h-905v408h-596l-262 -408h-99zM432 485h545v844z" />
<glyph unicode="&#xc7;" horiz-adv-x="1261" d="M92 721q0 208 70 376.5t203.5 268.5t308.5 100q177 0 306.5 -100t199.5 -276l-82 -31q-60 154 -168.5 242t-255.5 88q-146 0 -259 -89.5t-173 -241t-60 -337.5t59 -337.5t171 -242t258 -90.5q127 0 226.5 67t162.5 187l82 -35q-71 -132 -184.5 -210t-258.5 -85l-65 -135 q51 23 100 23q71 0 117.5 -39t46.5 -103q0 -70 -62 -113.5t-173 -43.5q-98 0 -183 35l17 61q32 -14 80.5 -25.5t80.5 -11.5q81 0 121.5 28.5t40.5 69.5q0 36 -28.5 59t-77.5 23q-50 0 -109 -26l-55 14l88 184q-166 9 -291 111.5t-189.5 267.5t-64.5 367z" />
<glyph unicode="&#xc8;" horiz-adv-x="1130" d="M154 0v1440h864v-78h-778v-569h591v-78h-591v-637h819v-78h-905zM301 1868h148l262 -307h-78z" />
<glyph unicode="&#xc9;" horiz-adv-x="1130" d="M154 0v1440h864v-78h-778v-569h591v-78h-591v-637h819v-78h-905zM457 1561l262 307h147l-331 -307h-78z" />
<glyph unicode="&#xca;" horiz-adv-x="1130" d="M154 0v1440h864v-78h-778v-569h591v-78h-591v-637h819v-78h-905zM293 1561l256 307h113l253 -307h-77l-234 239l-237 -239h-74z" />
<glyph unicode="&#xcb;" horiz-adv-x="1130" d="M154 0v1440h864v-78h-778v-569h591v-78h-591v-637h819v-78h-905zM358 1704q0 28 20 48t46 20q28 0 48 -20t20 -48q0 -26 -20 -46t-48 -20q-26 0 -46 20t-20 46zM696 1704q0 28 20 48t46 20q28 0 47.5 -20t19.5 -48q0 -26 -19.5 -46t-47.5 -20q-26 0 -46 20t-20 46z" />
<glyph unicode="&#xcc;" horiz-adv-x="393" d="M-170 1868h147l263 -307h-78zM154 0v1440h86v-1440h-86z" />
<glyph unicode="&#xcd;" horiz-adv-x="393" d="M154 0v1440h86v-1440h-86zM154 1561l262 307h147l-332 -307h-77z" />
<glyph unicode="&#xce;" horiz-adv-x="393" d="M-115 1561l256 307h113l254 -307h-78l-233 239l-238 -239h-74zM154 0v1440h86v-1440h-86z" />
<glyph unicode="&#xcf;" horiz-adv-x="393" d="M-39 1704q0 28 20 48t46 20q28 0 47.5 -20t19.5 -48q0 -26 -20 -46t-47 -20q-26 0 -46 20t-20 46zM154 0v1440h86v-1440h-86zM299 1704q0 28 20 48t46 20q28 0 47.5 -20t19.5 -48q0 -26 -20 -46t-47 -20q-26 0 -46 20t-20 46z" />
<glyph unicode="&#xd0;" horiz-adv-x="1308" d="M20 709v73h168v658h451q131 0 241 -56.5t183 -154t113.5 -228.5t40.5 -280t-40.5 -280.5t-114 -229.5t-183 -154.5t-240.5 -56.5h-451v709h-168zM276 78h363q146 0 257.5 87t169.5 232.5t58 323.5t-58 323t-169.5 231.5t-257.5 86.5h-363v-580h381v-73h-381v-631z" />
<glyph unicode="&#xd1;" horiz-adv-x="1331" d="M154 0v1440h94l844 -1305v1305h86v-1440h-97l-841 1303v-1303h-86zM348 1632q8 88 57 138.5t132 50.5q43 0 84 -19t66.5 -41.5t58 -41.5t61.5 -19q52 0 78 29.5t39 87.5l63 -11q-15 -94 -61.5 -138t-126.5 -44q-42 0 -80.5 19t-63 41.5t-58 41.5t-65.5 19q-45 0 -75 -33 t-43 -88z" />
<glyph unicode="&#xd2;" horiz-adv-x="1339" d="M92 719q0 208 69 376.5t202 269.5t307 101t307 -101t201.5 -269.5t68.5 -376.5t-68.5 -376.5t-201.5 -269t-307 -100.5t-307 100.5t-202 269t-69 376.5zM182 719q0 -186 59 -337t171 -241t258 -90q147 0 259 90t170 241t58 337t-58 337.5t-170 242t-259 90.5 q-146 0 -258 -90.5t-171 -242t-59 -337.5zM322 1868h147l262 -307h-78z" />
<glyph unicode="&#xd3;" horiz-adv-x="1339" d="M92 719q0 208 69 376.5t202 269.5t307 101t307 -101t201.5 -269.5t68.5 -376.5t-68.5 -376.5t-201.5 -269t-307 -100.5t-307 100.5t-202 269t-69 376.5zM182 719q0 -186 59 -337t171 -241t258 -90q147 0 259 90t170 241t58 337t-58 337.5t-170 242t-259 90.5 q-146 0 -258 -90.5t-171 -242t-59 -337.5zM600 1561l262 307h148l-332 -307h-78z" />
<glyph unicode="&#xd4;" horiz-adv-x="1339" d="M92 719q0 208 69 376.5t202 269.5t307 101t307 -101t201.5 -269.5t68.5 -376.5t-68.5 -376.5t-201.5 -269t-307 -100.5t-307 100.5t-202 269t-69 376.5zM182 719q0 -186 59 -337t171 -241t258 -90q147 0 259 90t170 241t58 337t-58 337.5t-170 242t-259 90.5 q-146 0 -258 -90.5t-171 -242t-59 -337.5zM358 1561l256 307h113l254 -307h-78l-233 239l-238 -239h-74z" />
<glyph unicode="&#xd5;" horiz-adv-x="1339" d="M92 719q0 208 69 376.5t202 269.5t307 101t307 -101t201.5 -269.5t68.5 -376.5t-68.5 -376.5t-201.5 -269t-307 -100.5t-307 100.5t-202 269t-69 376.5zM182 719q0 -186 59 -337t171 -241t258 -90q147 0 259 90t170 241t58 337t-58 337.5t-170 242t-259 90.5 q-146 0 -258 -90.5t-171 -242t-59 -337.5zM352 1632q8 88 57 138.5t132 50.5q43 0 84 -19t66.5 -41.5t58 -41.5t61.5 -19q52 0 78 29.5t39 87.5l63 -11q-15 -94 -61.5 -138t-126.5 -44q-42 0 -80.5 19t-63 41.5t-57.5 41.5t-65 19q-45 0 -75.5 -33t-43.5 -88z" />
<glyph unicode="&#xd6;" horiz-adv-x="1339" d="M92 719q0 208 69 376.5t202 269.5t307 101t307 -101t201.5 -269.5t68.5 -376.5t-68.5 -376.5t-201.5 -269t-307 -100.5t-307 100.5t-202 269t-69 376.5zM182 719q0 -186 59 -337t171 -241t258 -90q147 0 259 90t170 241t58 337t-58 337.5t-170 242t-259 90.5 q-146 0 -258 -90.5t-171 -242t-59 -337.5zM434 1704q0 28 20 48t46 20q28 0 47.5 -20t19.5 -48q0 -26 -19.5 -46t-47.5 -20q-26 0 -46 20t-20 46zM772 1704q0 28 20 48t46 20q28 0 47.5 -20t19.5 -48q0 -26 -19.5 -46t-47.5 -20q-26 0 -46 20t-20 46z" />
<glyph unicode="&#xd7;" d="M160 135l379 383l-379 383l57 57l379 -383l377 383l57 -57l-377 -383l377 -383l-57 -57l-377 383l-379 -383z" />
<glyph unicode="&#xd8;" horiz-adv-x="1339" d="M92 719q0 208 69 376.5t202 269.5t307 101q200 0 342 -129l135 217l57 -34l-143 -232q89 -103 137.5 -251t48.5 -318q0 -208 -68.5 -376.5t-201.5 -269t-307 -100.5q-199 0 -344 129l-136 -217l-57 35l146 232q-90 102 -138.5 249t-48.5 318zM182 719q0 -301 146 -492 l641 1035q-127 127 -299 127q-146 0 -258 -90.5t-171 -242t-59 -337.5zM371 178q127 -127 299 -127q147 0 259 90t170 241t58 337q0 303 -145 493z" />
<glyph unicode="&#xd9;" horiz-adv-x="1282" d="M143 594v846h86v-856q0 -134 20.5 -230t67.5 -165.5t127 -103.5t197 -34t197 34t127 103.5t67.5 165.5t20.5 230v856h86v-846q0 -155 -25.5 -267t-82.5 -193t-154 -121t-236 -40t-236 40t-154 121t-82.5 193t-25.5 267zM301 1868h148l262 -307h-78z" />
<glyph unicode="&#xda;" horiz-adv-x="1282" d="M143 594v846h86v-856q0 -134 20.5 -230t67.5 -165.5t127 -103.5t197 -34t197 34t127 103.5t67.5 165.5t20.5 230v856h86v-846q0 -155 -25.5 -267t-82.5 -193t-154 -121t-236 -40t-236 40t-154 121t-82.5 193t-25.5 267zM539 1561l262 307h147l-332 -307h-77z" />
<glyph unicode="&#xdb;" horiz-adv-x="1282" d="M143 594v846h86v-856q0 -134 20.5 -230t67.5 -165.5t127 -103.5t197 -34t197 34t127 103.5t67.5 165.5t20.5 230v856h86v-846q0 -155 -25.5 -267t-82.5 -193t-154 -121t-236 -40t-236 40t-154 121t-82.5 193t-25.5 267zM330 1561l256 307h112l254 -307h-78l-233 239 l-238 -239h-73z" />
<glyph unicode="&#xdc;" horiz-adv-x="1282" d="M143 594v846h86v-856q0 -134 20.5 -230t67.5 -165.5t127 -103.5t197 -34t197 34t127 103.5t67.5 165.5t20.5 230v856h86v-846q0 -155 -25.5 -267t-82.5 -193t-154 -121t-236 -40t-236 40t-154 121t-82.5 193t-25.5 267zM406 1704q0 28 19.5 48t45.5 20q28 0 48 -20 t20 -48q0 -26 -20 -46t-48 -20q-26 0 -45.5 20t-19.5 46zM743 1704q0 28 20 48t46 20q28 0 48 -20t20 -48q0 -26 -20 -46t-48 -20q-26 0 -46 20t-20 46z" />
<glyph unicode="&#xdd;" horiz-adv-x="1159" d="M41 1440h94l445 -776l442 776h96l-495 -860v-580h-86v580zM487 1561l263 307h147l-332 -307h-78z" />
<glyph unicode="&#xde;" horiz-adv-x="1167" d="M154 0v1440h86v-252h356q90 0 162 -11t136.5 -39t108 -72t68.5 -113.5t25 -161.5q0 -96 -29 -169t-77 -117.5t-118.5 -72.5t-145 -38.5t-165.5 -10.5h-321v-383h-86zM240 459h315q246 0 348.5 77t102.5 252q0 176 -98 250t-322 74h-346v-653z" />
<glyph unicode="&#xdf;" horiz-adv-x="1054" d="M143 0v969q0 85 8.5 152.5t33 134t65 111t108.5 72t160 27.5q89 0 157.5 -28t109 -76.5t61 -107t20.5 -124.5q0 -117 -60.5 -198t-209.5 -123q188 -50 280.5 -163t92.5 -261q0 -194 -114.5 -299.5t-307.5 -105.5q-32 0 -78.5 7t-65.5 15v80q27 -12 71.5 -20.5t74.5 -8.5 q151 0 241.5 87.5t90.5 252.5q0 109 -65 194.5t-169.5 131.5t-230.5 51v70q64 0 126 17.5t116 51t87 89.5t33 126q0 115 -70.5 192t-193.5 77q-54 0 -97.5 -14.5t-73 -38t-51.5 -59t-34 -70.5t-19.5 -79.5t-9.5 -80.5t-2 -78v-973h-84z" />
<glyph unicode="&#xe0;" horiz-adv-x="1015" d="M86 272q0 87 35.5 156t96 111t136.5 64t162 22q138 0 262 -56v142q0 121 -82 193.5t-196 72.5q-82 0 -160.5 -43.5t-128.5 -126.5l-66 49q52 91 151.5 144t213.5 53q70 0 131.5 -21t111.5 -62.5t79.5 -112t29.5 -161.5v-585q0 -35 39 -35h33v-76h-45q-59 0 -85 28.5 t-26 86.5v35q-60 -80 -163.5 -126.5t-211.5 -46.5q-135 0 -226 74.5t-91 220.5zM174 281q0 -109 68 -168.5t170 -59.5q97 0 199 55t167 150v223q-45 31 -114 49.5t-142 18.5q-147 0 -247.5 -73.5t-100.5 -194.5zM193 1489h147l262 -307h-78z" />
<glyph unicode="&#xe1;" horiz-adv-x="1015" d="M86 272q0 87 35.5 156t96 111t136.5 64t162 22q138 0 262 -56v142q0 121 -82 193.5t-196 72.5q-82 0 -160.5 -43.5t-128.5 -126.5l-66 49q52 91 151.5 144t213.5 53q70 0 131.5 -21t111.5 -62.5t79.5 -112t29.5 -161.5v-585q0 -35 39 -35h33v-76h-45q-59 0 -85 28.5 t-26 86.5v35q-60 -80 -163.5 -126.5t-211.5 -46.5q-135 0 -226 74.5t-91 220.5zM174 281q0 -109 68 -168.5t170 -59.5q97 0 199 55t167 150v223q-45 31 -114 49.5t-142 18.5q-147 0 -247.5 -73.5t-100.5 -194.5zM389 1182l262 307h148l-332 -307h-78z" />
<glyph unicode="&#xe2;" horiz-adv-x="1015" d="M86 272q0 87 35.5 156t96 111t136.5 64t162 22q138 0 262 -56v142q0 121 -82 193.5t-196 72.5q-82 0 -160.5 -43.5t-128.5 -126.5l-66 49q52 91 151.5 144t213.5 53q70 0 131.5 -21t111.5 -62.5t79.5 -112t29.5 -161.5v-585q0 -35 39 -35h33v-76h-45q-59 0 -85 28.5 t-26 86.5v35q-60 -80 -163.5 -126.5t-211.5 -46.5q-135 0 -226 74.5t-91 220.5zM174 281q0 -109 68 -168.5t170 -59.5q97 0 199 55t167 150v223q-45 31 -114 49.5t-142 18.5q-147 0 -247.5 -73.5t-100.5 -194.5zM195 1182l256 307h112l254 -307h-78l-233 239l-238 -239h-73z " />
<glyph unicode="&#xe3;" horiz-adv-x="1015" d="M86 272q0 87 35.5 156t96 111t136.5 64t162 22q138 0 262 -56v142q0 121 -82 193.5t-196 72.5q-82 0 -160.5 -43.5t-128.5 -126.5l-66 49q52 91 151.5 144t213.5 53q70 0 131.5 -21t111.5 -62.5t79.5 -112t29.5 -161.5v-585q0 -35 39 -35h33v-76h-45q-59 0 -85 28.5 t-26 86.5v35q-60 -80 -163.5 -126.5t-211.5 -46.5q-135 0 -226 74.5t-91 220.5zM174 281q0 -109 68 -168.5t170 -59.5q97 0 199 55t167 150v223q-45 31 -114 49.5t-142 18.5q-147 0 -247.5 -73.5t-100.5 -194.5zM186 1253q8 88 57 138.5t132 50.5q43 0 84 -19t66.5 -41.5 t58 -41.5t61.5 -19q52 0 78 29.5t39 87.5l63 -11q-15 -94 -61.5 -138t-126.5 -44q-42 0 -80.5 19t-63 41.5t-57.5 41.5t-65 19q-45 0 -75.5 -33t-43.5 -88z" />
<glyph unicode="&#xe4;" horiz-adv-x="1015" d="M86 272q0 87 35.5 156t96 111t136.5 64t162 22q138 0 262 -56v142q0 121 -82 193.5t-196 72.5q-82 0 -160.5 -43.5t-128.5 -126.5l-66 49q52 91 151.5 144t213.5 53q70 0 131.5 -21t111.5 -62.5t79.5 -112t29.5 -161.5v-585q0 -35 39 -35h33v-76h-45q-59 0 -85 28.5 t-26 86.5v35q-60 -80 -163.5 -126.5t-211.5 -46.5q-135 0 -226 74.5t-91 220.5zM174 281q0 -109 68 -168.5t170 -59.5q97 0 199 55t167 150v223q-45 31 -114 49.5t-142 18.5q-147 0 -247.5 -73.5t-100.5 -194.5zM250 1325q0 28 19.5 48t45.5 20q28 0 48 -20t20 -48 q0 -26 -20 -45.5t-48 -19.5q-26 0 -45.5 19.5t-19.5 45.5zM588 1325q0 28 19.5 48t45.5 20q28 0 48 -20t20 -48q0 -26 -20 -45.5t-48 -19.5q-26 0 -45.5 19.5t-19.5 45.5z" />
<glyph unicode="&#xe5;" horiz-adv-x="1015" d="M86 272q0 87 35.5 156t96 111t136.5 64t162 22q138 0 262 -56v142q0 121 -82 193.5t-196 72.5q-82 0 -160.5 -43.5t-128.5 -126.5l-66 49q52 91 151.5 144t213.5 53q70 0 131.5 -21t111.5 -62.5t79.5 -112t29.5 -161.5v-585q0 -35 39 -35h33v-76h-45q-59 0 -85 28.5 t-26 86.5v35q-60 -80 -163.5 -126.5t-211.5 -46.5q-135 0 -226 74.5t-91 220.5zM174 281q0 -109 68 -168.5t170 -59.5q97 0 199 55t167 150v223q-45 31 -114 49.5t-142 18.5q-147 0 -247.5 -73.5t-100.5 -194.5zM301 1378q0 85 57.5 143t143.5 58t143 -58t57 -143 q0 -84 -57 -142t-143 -58t-143.5 58t-57.5 142zM367 1378q0 -57 38 -96t95 -39q58 0 96.5 39t38.5 96t-38.5 96t-96.5 39q-57 0 -95 -39t-38 -96z" />
<glyph unicode="&#xe6;" horiz-adv-x="1679" d="M86 272q0 87 35.5 156t96 111t136.5 64t162 22q138 0 262 -56v142q0 121 -81.5 192.5t-196.5 71.5q-82 0 -159.5 -42.5t-127.5 -125.5l-68 49q52 91 151.5 144t213.5 53q75 0 140 -23t117 -75t75 -128q53 108 142 167t204 59q186 0 297.5 -148t111.5 -391v-18h-733 q5 -197 97 -323t233 -126q86 0 162 45t121 121l69 -47q-57 -91 -149.5 -142t-202.5 -51q-120 0 -213.5 64.5t-146.5 179.5q-71 -100 -188.5 -170t-242.5 -70q-135 0 -226 74.5t-91 220.5zM174 281q0 -109 68 -168.5t170 -59.5q106 0 212.5 66t180.5 176q-26 94 -29 188 q-45 30 -114 48t-140 18q-147 0 -247.5 -73.5t-100.5 -194.5zM866 569h643q-12 184 -100 297t-221 113q-134 0 -222 -113t-100 -297z" />
<glyph unicode="&#xe7;" horiz-adv-x="933" d="M86 512q0 243 115 392t309 149q222 0 342 -191l-70 -49q-109 164 -272 164q-151 0 -243.5 -129t-92.5 -336q0 -205 92.5 -334t243.5 -129q160 0 268 164l70 -47q-112 -179 -313 -191l-66 -135q51 23 100 23q71 0 117.5 -39t46.5 -103q0 -70 -62 -113.5t-173 -43.5 q-98 0 -183 35l17 61q32 -14 80.5 -25.5t81.5 -11.5q80 0 120.5 28.5t40.5 69.5q0 36 -28.5 59t-77.5 23q-51 0 -109 -26l-55 14l88 184q-179 15 -283 160.5t-104 376.5z" />
<glyph unicode="&#xe8;" horiz-adv-x="980" d="M86 514q0 243 111.5 391t298.5 148q185 0 292 -147.5t107 -391.5v-18h-721q5 -197 97 -323t233 -126q86 0 164.5 45.5t122.5 120.5l65 -47q-57 -91 -149.5 -142t-202.5 -51q-187 0 -302.5 149.5t-115.5 391.5zM172 1489h147l263 -307h-78zM176 569h633 q-12 185 -96.5 297.5t-216.5 112.5q-134 0 -221 -113t-99 -297z" />
<glyph unicode="&#xe9;" horiz-adv-x="980" d="M86 514q0 243 111.5 391t298.5 148q185 0 292 -147.5t107 -391.5v-18h-721q5 -197 97 -323t233 -126q86 0 164.5 45.5t122.5 120.5l65 -47q-57 -91 -149.5 -142t-202.5 -51q-187 0 -302.5 149.5t-115.5 391.5zM176 569h633q-12 185 -96.5 297.5t-216.5 112.5 q-134 0 -221 -113t-99 -297zM369 1182l262 307h147l-332 -307h-77z" />
<glyph unicode="&#xea;" horiz-adv-x="980" d="M86 514q0 243 111.5 391t298.5 148q185 0 292 -147.5t107 -391.5v-18h-721q5 -197 97 -323t233 -126q86 0 164.5 45.5t122.5 120.5l65 -47q-57 -91 -149.5 -142t-202.5 -51q-187 0 -302.5 149.5t-115.5 391.5zM176 569h633q-12 185 -96.5 297.5t-216.5 112.5 q-134 0 -221 -113t-99 -297zM195 1182l256 307h112l254 -307h-78l-233 239l-238 -239h-73z" />
<glyph unicode="&#xeb;" horiz-adv-x="980" d="M86 514q0 243 111.5 391t298.5 148q185 0 292 -147.5t107 -391.5v-18h-721q5 -197 97 -323t233 -126q86 0 164.5 45.5t122.5 120.5l65 -47q-57 -91 -149.5 -142t-202.5 -51q-187 0 -302.5 149.5t-115.5 391.5zM176 569h633q-12 185 -96.5 297.5t-216.5 112.5 q-134 0 -221 -113t-99 -297zM270 1325q0 28 20 48t46 20q28 0 47.5 -20t19.5 -48q0 -26 -19.5 -45.5t-47.5 -19.5q-26 0 -46 19.5t-20 45.5zM608 1325q0 28 20 48t46 20q28 0 47.5 -20t19.5 -48q0 -26 -19.5 -45.5t-47.5 -19.5q-26 0 -46 19.5t-20 45.5z" />
<glyph unicode="&#xec;" horiz-adv-x="399" d="M-170 1489h147l263 -307h-78zM158 0v1026h84v-1026h-84z" />
<glyph unicode="&#xed;" horiz-adv-x="399" d="M158 0v1026h84v-1026h-84zM160 1182l262 307h147l-331 -307h-78z" />
<glyph unicode="&#xee;" horiz-adv-x="399" d="M-113 1182l256 307h113l254 -307h-78l-233 239l-238 -239h-74zM158 0v1026h84v-1026h-84z" />
<glyph unicode="&#xef;" horiz-adv-x="399" d="M-37 1325q0 28 20 48t46 20q28 0 47.5 -20t19.5 -48q0 -26 -19.5 -45.5t-47.5 -19.5q-26 0 -46 19.5t-20 45.5zM158 0v1026h84v-1026h-84zM301 1325q0 28 20 48t46 20q28 0 47.5 -20t19.5 -48q0 -26 -19.5 -45.5t-47.5 -19.5q-26 0 -46 19.5t-20 45.5z" />
<glyph unicode="&#xf0;" horiz-adv-x="1071" d="M86 473q0 227 119.5 367.5t302.5 140.5q134 0 240.5 -67t160.5 -207q-32 183 -92 305t-158 229l-208 -117l-45 58l200 108q-87 70 -190 119l33 61q110 -47 225 -139l135 78l47 -59l-133 -72q134 -139 198 -330t64 -399q0 -78 -13.5 -154t-47.5 -153.5t-84.5 -136 t-131.5 -95.5t-182 -37q-202 0 -321 141t-119 359zM174 475q0 -202 99 -315t253 -113q166 0 261.5 117.5t97.5 312.5q0 54 -9.5 108t-35 113.5t-64.5 104.5t-105 74.5t-149 29.5q-75 0 -135.5 -25.5t-99.5 -67t-65 -98.5t-37 -116.5t-11 -124.5z" />
<glyph unicode="&#xf1;" horiz-adv-x="1009" d="M143 0v1026h84v-149q48 86 131 131t181 45q86 0 152 -33t106 -92.5t60 -136t20 -168.5v-623h-84v645q0 156 -69.5 244t-193.5 88q-55 0 -107 -20.5t-97 -61t-72 -109.5t-27 -157v-629h-84zM180 1253q8 88 57 138.5t132 50.5q43 0 84 -19t66.5 -41.5t58 -41.5t61.5 -19 q52 0 78 29.5t39 87.5l63 -11q-15 -94 -61.5 -138t-126.5 -44q-42 0 -80.5 19t-63 41.5t-57.5 41.5t-65 19q-45 0 -75.5 -33t-43.5 -88z" />
<glyph unicode="&#xf2;" horiz-adv-x="1019" d="M86 514q0 245 112 392t312 147t312 -147t112 -392q0 -246 -112.5 -393.5t-311.5 -147.5t-311.5 147.5t-112.5 393.5zM172 1489h147l263 -307h-78zM174 514q0 -209 89 -338t247 -129t247 129t89 338t-89 337t-247 128t-247 -128t-89 -337z" />
<glyph unicode="&#xf3;" horiz-adv-x="1019" d="M86 514q0 245 112 392t312 147t312 -147t112 -392q0 -246 -112.5 -393.5t-311.5 -147.5t-311.5 147.5t-112.5 393.5zM174 514q0 -209 89 -338t247 -129t247 129t89 338t-89 337t-247 128t-247 -128t-89 -337zM434 1182l262 307h148l-332 -307h-78z" />
<glyph unicode="&#xf4;" horiz-adv-x="1019" d="M86 514q0 245 112 392t312 147t312 -147t112 -392q0 -246 -112.5 -393.5t-311.5 -147.5t-311.5 147.5t-112.5 393.5zM174 514q0 -209 89 -338t247 -129t247 129t89 338t-89 337t-247 128t-247 -128t-89 -337zM193 1182l256 307h112l254 -307h-78l-233 239l-238 -239h-73z " />
<glyph unicode="&#xf5;" horiz-adv-x="1019" d="M86 514q0 245 112 392t312 147t312 -147t112 -392q0 -246 -112.5 -393.5t-311.5 -147.5t-311.5 147.5t-112.5 393.5zM174 514q0 -209 89 -338t247 -129t247 129t89 338t-89 337t-247 128t-247 -128t-89 -337zM186 1253q8 88 57 138.5t132 50.5q43 0 84 -19t66.5 -41.5 t58 -41.5t61.5 -19q52 0 78 29.5t39 87.5l63 -11q-15 -94 -61.5 -138t-126.5 -44q-42 0 -80.5 19t-63 41.5t-57.5 41.5t-65 19q-45 0 -75.5 -33t-43.5 -88z" />
<glyph unicode="&#xf6;" horiz-adv-x="1019" d="M86 514q0 245 112 392t312 147t312 -147t112 -392q0 -246 -112.5 -393.5t-311.5 -147.5t-311.5 147.5t-112.5 393.5zM174 514q0 -209 89 -338t247 -129t247 129t89 338t-89 337t-247 128t-247 -128t-89 -337zM268 1325q0 28 20 48t46 20q28 0 47.5 -20t19.5 -48 q0 -26 -19.5 -45.5t-47.5 -19.5q-26 0 -46 19.5t-20 45.5zM606 1325q0 28 20 48t46 20q28 0 47.5 -20t19.5 -48q0 -26 -19.5 -45.5t-47.5 -19.5q-26 0 -46 19.5t-20 45.5z" />
<glyph unicode="&#xf7;" d="M82 606v80h1024v-80h-1024zM522 305q0 31 21.5 52.5t50.5 21.5q31 0 52.5 -21.5t21.5 -52.5q0 -29 -21.5 -50.5t-52.5 -21.5q-29 0 -50.5 21.5t-21.5 50.5zM522 983q0 29 21.5 50.5t50.5 21.5q31 0 52.5 -21.5t21.5 -50.5q0 -31 -21.5 -52.5t-52.5 -21.5 q-29 0 -50.5 21.5t-21.5 52.5z" />
<glyph unicode="&#xf8;" horiz-adv-x="1073" d="M86 -61l127 178q-127 146 -127 397q0 242 124.5 390.5t326.5 148.5q153 0 276 -101l123 170l51 -39l-127 -178q127 -149 127 -393q0 -242 -124 -390.5t-326 -148.5q-159 0 -277 97l-123 -170zM174 514q0 -201 92 -326l500 695q-99 96 -229 96q-161 0 -262 -130t-101 -335 zM307 139q95 -92 230 -92q161 0 261.5 130t100.5 335q0 192 -92 324z" />
<glyph unicode="&#xf9;" horiz-adv-x="1009" d="M127 1489h147l263 -307h-78zM133 403v623h84v-645q0 -156 69 -244t193 -88q55 0 107 20.5t97 61t72 109.5t27 157v629h84v-1026h-84v150q-48 -87 -131 -132t-180 -45q-86 0 -152 33t-106 92.5t-60 136t-20 168.5z" />
<glyph unicode="&#xfa;" horiz-adv-x="1009" d="M133 403v623h84v-645q0 -156 69 -244t193 -88q55 0 107 20.5t97 61t72 109.5t27 157v629h84v-1026h-84v150q-48 -87 -131 -132t-180 -45q-86 0 -152 33t-106 92.5t-60 136t-20 168.5zM406 1182l262 307h147l-332 -307h-77z" />
<glyph unicode="&#xfb;" horiz-adv-x="1009" d="M133 403v623h84v-645q0 -156 69 -244t193 -88q55 0 107 20.5t97 61t72 109.5t27 157v629h84v-1026h-84v150q-48 -87 -131 -132t-180 -45q-86 0 -152 33t-106 92.5t-60 136t-20 168.5zM186 1182l256 307h113l254 -307h-78l-233 239l-238 -239h-74z" />
<glyph unicode="&#xfc;" horiz-adv-x="1009" d="M133 403v623h84v-645q0 -156 69 -244t193 -88q55 0 107 20.5t97 61t72 109.5t27 157v629h84v-1026h-84v150q-48 -87 -131 -132t-180 -45q-86 0 -152 33t-106 92.5t-60 136t-20 168.5zM262 1325q0 28 20 48t46 20q28 0 47.5 -20t19.5 -48q0 -26 -19.5 -45.5t-47.5 -19.5 q-26 0 -46 19.5t-20 45.5zM600 1325q0 28 20 48t46 20q28 0 47.5 -20t19.5 -48q0 -26 -19.5 -45.5t-47.5 -19.5q-26 0 -46 19.5t-20 45.5z" />
<glyph unicode="&#xfd;" horiz-adv-x="929" d="M51 1026h90l318 -930l329 930h91l-496 -1319q-51 -133 -178 -133q-36 0 -72 16v70q32 -16 70 -16q77 0 112 92l101 260zM375 1182l262 307h147l-331 -307h-78z" />
<glyph unicode="&#xfe;" horiz-adv-x="1013" d="M143 -410v1852h84v-576q102 187 320 187q110 0 198 -73t135.5 -196.5t47.5 -271.5t-46 -270.5t-132 -195.5t-195 -73q-211 0 -328 211v-594h-84zM227 383q32 -146 118 -241t198 -95q131 0 214 134.5t83 330.5q0 128 -37.5 234t-107.5 169.5t-158 63.5q-106 0 -188 -78.5 t-122 -204.5v-313z" />
<glyph unicode="&#xff;" horiz-adv-x="929" d="M51 1026h90l318 -930l329 930h91l-496 -1319q-51 -133 -178 -133q-36 0 -72 16v70q32 -16 70 -16q77 0 112 92l101 260zM223 1325q0 28 20 48t46 20q28 0 47.5 -20t19.5 -48q0 -26 -19.5 -45.5t-47.5 -19.5q-26 0 -46 19.5t-20 45.5zM561 1325q0 28 20 48t46 20 q28 0 47.5 -20t19.5 -48q0 -26 -19.5 -45.5t-47.5 -19.5q-26 0 -46 19.5t-20 45.5z" />
<glyph unicode="&#x152;" horiz-adv-x="2007" d="M92 721q0 149 40.5 280t113.5 228.5t183 154t241 56.5h1224v-78h-774v-569h588v-78h-588v-637h815v-78h-1265q-131 0 -240.5 56.5t-183 154.5t-114 229.5t-40.5 280.5zM182 721q0 -133 34.5 -251t97 -205t154.5 -138t202 -51h360v1288h-360q-110 0 -202 -50.5 t-154.5 -138t-97 -205t-34.5 -249.5z" />
<glyph unicode="&#x153;" horiz-adv-x="1736" d="M86 514q0 245 112 392t312 147q138 0 233.5 -72.5t143.5 -204.5q46 131 140.5 204t223.5 73q186 0 293 -147.5t107 -391.5v-18h-721q5 -197 97 -323t233 -126q86 0 164 45.5t122 120.5l66 -47q-57 -91 -149.5 -142t-202.5 -51q-130 0 -226.5 74t-146.5 207 q-48 -134 -143.5 -207.5t-233.5 -73.5q-199 0 -311.5 147.5t-112.5 393.5zM174 514q0 -209 89 -338t247 -129t247 128t89 337t-89 338t-247 129t-247 -128t-89 -337zM932 569h633q-12 185 -97 297.5t-217 112.5q-134 0 -220.5 -112.5t-98.5 -297.5z" />
<glyph unicode="&#x178;" horiz-adv-x="1159" d="M41 1440h94l445 -776l442 776h96l-495 -860v-580h-86v580zM344 1704q0 28 20 48t46 20q28 0 47.5 -20t19.5 -48q0 -26 -19.5 -46t-47.5 -20q-26 0 -46 20t-20 46zM682 1704q0 28 20 48t46 20q28 0 47.5 -20t19.5 -48q0 -26 -19.5 -46t-47.5 -20q-26 0 -46 20t-20 46z" />
<glyph unicode="&#x2c6;" horiz-adv-x="921" d="M150 1182l256 307h112l254 -307h-78l-233 239l-238 -239h-73z" />
<glyph unicode="&#x2dc;" horiz-adv-x="921" d="M141 1253q8 88 57 138.5t132 50.5q43 0 84 -19t66.5 -41.5t58 -41.5t61.5 -19q52 0 78 29.5t39 87.5l63 -11q-15 -94 -61.5 -138t-126.5 -44q-42 0 -80.5 19t-63 41.5t-57.5 41.5t-65 19q-45 0 -75.5 -33t-43.5 -88z" />
<glyph unicode="&#x2000;" horiz-adv-x="934" />
<glyph unicode="&#x2001;" horiz-adv-x="1868" />
<glyph unicode="&#x2002;" horiz-adv-x="934" />
<glyph unicode="&#x2003;" horiz-adv-x="1868" />
<glyph unicode="&#x2004;" horiz-adv-x="622" />
<glyph unicode="&#x2005;" horiz-adv-x="467" />
<glyph unicode="&#x2006;" horiz-adv-x="311" />
<glyph unicode="&#x2007;" horiz-adv-x="311" />
<glyph unicode="&#x2008;" horiz-adv-x="233" />
<glyph unicode="&#x2009;" horiz-adv-x="373" />
<glyph unicode="&#x200a;" horiz-adv-x="103" />
<glyph unicode="&#x2010;" horiz-adv-x="655" d="M102 557v78h451v-78h-451z" />
<glyph unicode="&#x2011;" horiz-adv-x="655" d="M102 557v78h451v-78h-451z" />
<glyph unicode="&#x2012;" horiz-adv-x="655" d="M102 557v78h451v-78h-451z" />
<glyph unicode="&#x2013;" horiz-adv-x="1054" d="M102 557v78h850v-78h-850z" />
<glyph unicode="&#x2014;" horiz-adv-x="1177" d="M102 557v78h973v-78h-973z" />
<glyph unicode="&#x2018;" horiz-adv-x="430" d="M66 956l223 510l59 -22l-153 -488h-129z" />
<glyph unicode="&#x2019;" horiz-adv-x="430" d="M82 952l154 488h129l-224 -510z" />
<glyph unicode="&#x201a;" horiz-adv-x="385" d="M41 -260l154 487h129l-224 -510z" />
<glyph unicode="&#x201c;" horiz-adv-x="757" d="M66 956l223 510l59 -22l-153 -488h-129zM393 956l223 510l60 -22l-154 -488h-129z" />
<glyph unicode="&#x201d;" horiz-adv-x="757" d="M82 952l154 488h129l-224 -510zM410 952l153 488h129l-223 -510z" />
<glyph unicode="&#x201e;" horiz-adv-x="712" d="M41 -260l154 487h129l-224 -510zM369 -260l153 487h129l-223 -510z" />
<glyph unicode="&#x2022;" horiz-adv-x="729" d="M133 735q0 97 68 166.5t164 69.5q95 0 163 -69t68 -165q0 -97 -67 -165t-164 -68q-95 0 -163.5 68t-68.5 163z" />
<glyph unicode="&#x2026;" horiz-adv-x="1349" d="M117 80q0 43 29.5 72.5t70.5 29.5q43 0 72.5 -29.5t29.5 -70.5q0 -43 -29.5 -72.5t-70.5 -29.5q-43 0 -72.5 29.5t-29.5 70.5zM596 80q0 43 29.5 72.5t70.5 29.5q43 0 73 -29.5t30 -70.5q0 -42 -29.5 -72t-71.5 -30q-43 0 -72.5 29.5t-29.5 70.5zM1081 80q0 42 29.5 72 t71.5 30q43 0 72.5 -29.5t29.5 -70.5q0 -43 -29.5 -72.5t-70.5 -29.5q-43 0 -73 29.5t-30 70.5z" />
<glyph unicode="&#x202f;" horiz-adv-x="373" />
<glyph unicode="&#x2039;" horiz-adv-x="600" d="M72 586l323 450l82 -18l-309 -432l309 -432l-82 -19z" />
<glyph unicode="&#x203a;" horiz-adv-x="600" d="M123 154l309 432l-309 432l82 18l323 -450l-323 -451z" />
<glyph unicode="&#x205f;" horiz-adv-x="467" />
<glyph unicode="&#x20ac;" d="M0 539l10 75h189q-4 70 -4 107q0 59 6 117h-201l10 75h199q38 247 163 400t310 153q150 0 260.5 -100.5t169.5 -275.5l-80 -31q-48 153 -139.5 241.5t-210.5 88.5q-145 0 -245.5 -131.5t-133.5 -344.5h508l-10 -75h-506q-6 -58 -6 -117q0 -37 4 -107h518l-10 -75h-498 q32 -219 131.5 -353.5t247.5 -134.5q104 0 188 66.5t134 185.5l75 -35q-63 -139 -165 -217t-232 -78q-187 0 -313 157t-162 409h-207z" />
<glyph unicode="&#x2122;" horiz-adv-x="1550" d="M92 1376v64h541v-64h-236v-684h-71v684h-234zM774 692v748h103l235 -619l236 619h100v-748h-68v662l-254 -666h-30l-254 666v-662h-68z" />
<glyph unicode="&#x25fc;" horiz-adv-x="1024" d="M0 0v1024h1024v-1024h-1024z" />
</font>
</defs>
</svg>
